media.gsi-baltikum
» » Don Byas All Star Quintet - Pennies From Heaven / Jamboree-Jump
Don Byas All Star Quintet - Pennies From Heaven / Jamboree-Jump album

Don Byas All Star Quintet - Pennies From Heaven / Jamboree-Jump album

  • Performer: Don Byas All Star Quintet
  • Genre: Jazz
  • Title: Pennies From Heaven / Jamboree-Jump
  • Released: 1945
  • Style: Swing
  • Country: US
  • MP3 version size: 1784 mb
  • FLAC version size: 1334 mb
  • Other: DXD WAV TTA MOD APE XM AAC
  • Rating: 4.8
  • Votes: 938

Description

Provided to YouTube by The Orchard Enterprises Pennies From Heaven · Don Byas · Don Byas All Star Quintet The Best of Byas 1938-49 ℗ 2008 Fantastic Voyage.

Explore releases from the Jamboree Records (2) label. Discover what's missing in your discography and shop for Jamboree Records (2) releases. From Renfro Valley with love ‎(LP, Album). Jamboree Records (2). 101. US. Unknown. 900. Don Byas All Star Quintet. Should I, You Call It Madness, But I Call It Love ‎(Shellac, 10"). 901. Pennies From Heaven, Jamboree-Jump. 902. Don Byas' All Star Quintet Featuring Johnny Guarnieri.

Don Byas - Jamboree Jump, 02:53, . MB download mp3 full version here. Album: Night and Day, Aalon. Download Don Byas - Jamboree Jump. Night and Day: Best 2 songs. Don Byas - Fruit Salad 03:01.

Jamboree Jump · Don Byas All Star Quartet. Don Byas : Original 1945 Recordings. Released on: 2011-05-03. Ensemble: Don Byas All Star Quartet Composer: Don Byas. Auto-generated by YouTube.

Don Byas All Star Quintet. Note that there was also an unrelated Jamboree Records out of Louisiana, with one confirmed release. This appears to date from circa 1953, give or take a couple of years: Cat.

Listen to music from Don Byas & Don Byas All Star Quintet like Pennies from Heaven. Find the latest tracks, albums, and images from Don Byas & Don Byas All Star Quintet. Connect to this site.

flac" WAVE INDEX 01 00:00:00 TRACK 11 AUDIO TITLE "Should I?" PERFORMER "Don Byas" INDEX 00 03:09:30 FILE "11. Should . lac" WAVE INDEX 01 00:00:00 TRACK 12 AUDIO TITLE "You Call It Madness, But I Call It Love" PERFORMER "Don Byas" INDEX 00 02:35:50 FILE "12. You Call It Madness, But I Call It Love. flac" WAVE INDEX 01 00:00:00 TRACK 13 AUDIO TITLE "Jamboree Jump" PERFORMER "Don Byas" INDEX 00 02:51:12 FILE "13. Jamboree Jump.

Don Byas - Annie Laurie (late 1945) 03:00 Complete Jazz Series 1947.

Tracklist

A Pennies From Heaven
B Jamboree-Jump

Companies, etc.

  • Manufactured By – Jamboree Records Inc.

Credits

  • Bass – Billy Taylor*
  • Drums – Cozy Cole
  • Piano – Johnny Guarnieri
  • Tenor Saxophone – Don Byas
  • Trumpet – Joe Thomas

Notes

Recorded January 28, 1945.

Barcode and Other Identifiers

  • Barcode (A) Label): MJ-7004
  • Barcode (B) Label): MJ-7001

Other versions

Category Artist Title (Format) Label Category Country Year
901 Don Byas All Star Quintet* Pennies From Heaven / Jamboree-Jump ‎(Shellac, 10") Jamboree Records 901 US 1945