media.gsi-baltikum
» » Lauren Wood - Love, Death & Customer Service
Lauren Wood - Love, Death & Customer Service album

Lauren Wood - Love, Death & Customer Service album

  • Performer: Lauren Wood
  • Genre: Rock / Pop
  • Title: Love, Death & Customer Service
  • Released: 2006
  • Country: US
  • MP3 version size: 1768 mb
  • FLAC version size: 1144 mb
  • Other: AU XM MP1 AUD FLAC APE DMF
  • Rating: 4.4
  • Votes: 246

Description

Альбом · 1996 · Песен: 14. Доступно с подпиской на Apple Music. Бесплатная пробная подписка.

Love, Death, & Customer Service.

Listen free to Lauren Wood – Love, Death & Customer Service (Instrumental, Contradictions and more). Discover more music, concerts, videos, and pictures with the largest catalogue online at Last. 2006 singer-songwriter. I Don't Believe in Love.

On this label, she released her third album, Lauren Wood, in 1999 and Love, Death & Customer Service in 2006. Her second self-titled album was first distributed in Japan under license from Bad Art. Discography. 2006 Bad Art Records. Released on: 2006-10-24. Contributor: Michael Verdick Producer: Lauren Wood. Auto-generated by YouTube. Now playing: Michael Jackson Billie Jean.

I'm the morning co-anchor for 2 NEWS Today on WDTN.

Album: Love, Death, & Customer Service. Chris Montan, Lauren Wood: best 2 tracks. Lauren Wood - What I'd Give For Love Cat Trick, 2005 04:58. Lauren Wood - Overload Lauren Wood, 1999 04:42. Artist: Lauren Wood Chris Montan.

Love, Death & Customer Service (2006). Love, Death & Customer Service (2011). Please Don't Leave" (1980).

Tracklist

Instrumental 0:39
Contradictions 4:29
Cora's Theme 3:35
You Gotta Love Those Guys 3:33
I Don't Believe In Love 4:17
Time Of The Season 5:08
The Waiting Room 3:46
You're Mine 3:40
Til Now 4:05
Can't Let Go 5:52
Come And Live With Me 3:16
Til You Let Your Heart Win 4:21
Walk Toward The Light 8:19

Versions

Category Artist Title (Format) Label Category Country Year
1188-14300-2 Lauren Wood Love, Death & Customer Service ‎(HDCD, Album) Bad Art Records 1188-14300-2 US 2006
VSCD-3357 Lauren Wood Love, Death & Customer Service ‎(CD, Album) Bad Art Records, Vivid Sound Corporation VSCD-3357 Japan 2007

Comments

Uaoteowi Uaoteowi
foobar2000 1.3.17 / Dynamic Range Meter 1.1.1log date: 2018-06-03 16:39:20--------------------------------------------------------------------------------Analyzed: Lauren Wood / Love, Death & Customer Service--------------------------------------------------------------------------------DR Peak RMS Duration Track--------------------------------------------------------------------------------DR9 -3.19 dB -18.96 dB 0:39 01-InstrumentalDR7 0.00 dB -9.92 dB 4:30 02-ContradictionsDR8 -0.10 dB -11.56 dB 3:35 03-Cora's ThemeDR9 -0.10 dB -10.59 dB 3:34 04-You Gotta Love Those GuysDR8 -0.48 dB -10.93 dB 4:17 05-I Don't Believe In LoveDR8 -0.20 dB -10.52 dB 5:09 06-Time Of The SeasonDR8 0.00 dB -9.48 dB 3:46 07-The Waiting RoomDR7 -0.10 dB -9.60 dB 3:41 08-You're MineDR7 -0.10 dB -9.87 dB 4:06 09-Til NowDR8 -0.10 dB -9.39 dB 5:52 10-Can't Let GoDR8 -0.10 dB -11.01 dB 3:16 11-Come And Live With MeDR7 0.00 dB -9.80 dB 4:22 12-Til You Let Your Heart WinDR7 -0.10 dB -9.62 dB 8:20 13-Walk Toward The Light--------------------------------------------------------------------------------Number of tracks: 13Official DR value: DR8Samplerate: 44100 HzChannels: 2Bits per sample: 16Bitrate: 890 kbpsCodec: ALAC================================================================================